Home | Arcade | Tai Siu | Bau Cua
 
VietKungFu.com Phòng Luyện KungFu Phim Bộ
[1 link]Mất Tích Missing 2012 S01 720p HDTV X264

Posted by googlevnn - 20th June 2012 - 03:31 AM








General
Unique ID : 171675835115882667936352111646744017452 (0x8127902B1AFC6773B8D8AB4213F47A2C)
Complete name : Missing.S01.720p.mkv
Format : Matroska
File size : 1.28 GiB
Duration : 41mn 39s
Overall bit rate : 4 392 Kbps
Encoded date : UTC 2012-03-16 12:03:08
Writing application : mkvmerge v5.2.1 ('A Far Off Place') built on Jan 2 2012 23:21:10
Writing library : libebml v1.2.3 + libmatroska v1.3.0
Video #1
ID : 1
Format : AVC
Format/Info : Advanced Video Codec
Format profile : High@L3.1
Format settings, CABAC : No
Format settings, ReFrames : 2 frames
Format settings, GOP : M=2, N=60
Codec ID : V_MPEG4/ISO/AVC
Duration : 41mn 39s
Bit rate : 3 921 Kbps
Width : 1 280 pixels
Height : 720 pixels
Display aspect ratio : 16:9
Frame rate : 23.976 fps
Color space : YUV
Chroma subsampling : 4:2:0
Bit depth : 8 bits
Scan type : Progressive
Bits/(Pixel*Frame) : 0.177
Stream size : 1.14 GiB (89%)
Language : English
Color primaries : BT.709-5, BT.1361, IEC 61966-2-4, SMPTE RP177
Transfer characteristics : BT.709-5, BT.1361
Matrix coefficients : BT.709-5, BT.1361, IEC 61966-2-4 709, SMPTE RP177
Audio #2
ID : 2
Format : AC-3
Format/Info : Audio Coding 3
Mode extension : CM (complete main)
Codec ID : A_AC3
Duration : 41mn 39s
Bit rate mode : Constant
Bit rate : 384 Kbps
Channel(s) : 6 channels
Channel positions : Front: L C R, Side: L R, LFE
Sampling rate : 48.0 KHz
Bit depth : 16 bits
Compression mode : Lossy
Stream size : 114 MiB (9%)
Language : English

IMDb: 6.8/10
Creator: Gregory Poirier
Stars: Ashley Judd, Cliff Curtis and Adriano Giannini
Missing là thể loại phim bộ khá hay được IMDb đánh giá 6.8/10, chỉ với 10 tập không làm mất nhiều thời gian người xem. Phim thuộc thể loại điều tra, với cốt truyện hay.
Cặp vợ chồng Rebecca Winstone và Paul Winstone là đặc vụ CIA. 8/2011 Paul bị tình báo Nga giết trong một vụ đánh bom ô tô. Rebecca giải nghệ , nuôi dạy Michael và là trưởng nhóm hướng đạo sinh trong hiệp hội phụ huynh – giáo viên. 10 năm sau cái chết của Paul, Michael 18 tuổi sang Ý học nghành kiến trúc và bị mất tích. Rebecca quyết định đi tìm tung tích của con với sự trợ giúp của người tình cũ là Giancarlo (Interpon Ý) và cả CIA khu vực Tây Âu. Trong quá trình điều tra cô gặp người chồng đã chết của mình. Tại sao Paul điệp viên xuất sắc phải ẩn mình trong 10 năm? Đằng sau vụ bắt cóc là gì? Ai là “Kẻ ẩn danh” điều hành các cựu điệp viên?
Mời các bạn đón xem.....





Download here

http://ryushare.com/387ac871481f/Missing.S01E01.720p.mkv
http://ryushare.com/3b354660772d/Missing.S01E010.720p.mkv
http://ryushare.com/3a4c71bb6849/Missing.S01E02.720p.mkv
http://ryushare.com/3a4c71bb6858/Missing.S01E03.720p.mkv
http://ryushare.com/39639d1656d5/Missing.S01E04.720p.mkv
http://ryushare.com/3791f3cc37dc/Missing.S01E05.720p.mkv
http://ryushare.com/3791f3cc37db/Missing.S01E06.720p.mkv
http://ryushare.com/3791f3cc37e3/Missing.S01E07.720p.mkv
http://ryushare.com/3c1e1b05882e/Missing.S01E08.720p.mkv
http://ryushare.com/3791f3cc37ea/Missing.S01E09.720p.mkv
Sub viêt
http://subscene.com/vietnamese/Missing-Fir...tle-554173.aspx
http://subscene.com/Missing-First-Season/s...tles-94162.aspx


Tăng tốc độ download bằng cách mua tai khoản trả phí Mời mọi người mua tại đia chỉ để ủng hộ minh
Kich Here

Thanks all .
Để đăng ký và mua tài khoản pre Các bạn thực hiên các bước như sau
BƯỚC 1 Register tài khoản từ 1 trong 2 địa chỉ trên
BƯỚC 2 Sau khi đăng ký song các bạn login usname và pass vào. Để nâng cấp tài khoản lên pre các bạn chọn mục RENEW PREMUIM và lụa chọn thời gian muốn úp.
BƯỚC 3: Chon link cân download và tận hương những bộ phim hay nhất.
Chúc các bạn vui vẻ

You must logged in to post. Click here to login, or register.

Jump to