Home | Arcade | Tai Siu | Bau Cua
 
VietKungFu.com Phòng Luyện KungFu Phim Lẻ
Trắng Đen: Black & White The Movie: The Dawn Of Assault (2012) 720p HDTV

Posted by googlevnn - 3rd August 2012 - 06:27 PM


Giới Thiệu:
Đạo Diễn: Thái Nhạc Huân
Diễn Viên: Triệu Hựu Đình
Quốc Gia: Trung Quốc ( Đài Loan )
Thể Loại: Hành Động, Kịch Tính, Xã Hội Đen, Hài Hước
Năm Phát Hành: 2012
Ngôn Ngữ: Trung Quốc Phổ Thông
Thời Lượng : 144 phút

Bộ phim xoay quanh 1 quả bom hạt nhân đang là tầm ngắm của quân phản động Padawan, Hội Tam Liên, Kẻ phản bội SIS và cảnh sát. Trong phim có nhiều cảnh rượt đuổi, đấu súng hoành tráng cùng với màn cướp máy bay của quân phản động Padawan kịch tính. Phim được các nhà phê bình đánh giá là đáng xem nhất của Trung Quốc từ đầu năm 2012 đến nay. Phim chính thức ra rạp Trung Quốc ngày 21-6-2012, độ dài 2h20p.

HTML Code:

Format : AVC
Format profile : High@L4.1
Duration : 2h 18mn
Bit rate : 4 320 Kbps
Width : 1 280 pixels
Height : 544 pixels
Frame rate : 23.976 fps
Scan type : Progressive
Stream size : 4.08 GiB (94%)
Language : English

Audio
Format : AC-3
Duration : 2h 18mn
Bit rate : 192 Kbps
Channel(s) : 2 channels
Channel positions : Front: L R
Sampling rate : 44.1 KHz
Stream size : 190 MiB (4%)


Download
Ðang Ký Account Free DOWNLOAD Hoạc Buy Account Rremium Ryushare Theo Link Này Ðẻ Ủng Hộ Mình=> CLICK HERE!

http://v2.subscene.com/vietnamese/black-wh...tle-602453.aspx

http://ryushare.com/3134234954e2/
http://ryushare.com/3134234954e9/
http://ryushare.com/3b354660c43b/
http://ryushare.com/304b4ea4477d/
http://ryushare.com/304b4ea4477c/
http://ryushare.com/3305cc937840/

Download
Đăng Ký Account Free DOWNLOAD Hoặc Buy Account Rremium Theo Link Này Để Ủng Hộ Mình=> CLICK HERE!
http://extabit.com/file/27avzko91rgrb/
http://extabit.com/file/27avzko4qbmsn/
http://extabit.com/file/27avzko4mk9ef/
http://extabit.com/file/27avzko4qao2v/
http://extabit.com/file/27avzko4lyntz/

You must logged in to post. Click here to login, or register.

Jump to