Home | Arcade | Tai Siu | Bau Cua
 
VietKungFu.com Phòng Luyện KungFu Phim Lẻ
Khói Thuốc Đam Mê Help Me Eros 2007 720p BluRay DTS x264-Wiki

Posted by googlevnn - 12th August 2012 - 08:09 PM




General
Complete name : Help Me Eros 2007 720p BluRay DTS x264-Wiki.mkv
Format : Matroska
File size : 4.37 GiB
Duration : 1h 55mn
Overall bit rate : 5 404 Kbps
Encoded date : UTC 2010-03-12 00:36:42
Writing application : mkvmerge v3.2.0 ('Beginnings') 编译于 Feb 12 2010 16:46:17
Writing library : libebml v0.7.9 + libmatroska v0.8.1

Video
ID : 1
Format : AVC
Format/Info : Advanced Video Codec
Format profile : High@L4.1
Format settings, CABAC : Yes
Format settings, ReFrames : 8 frames
Codec ID : V_MPEG4/ISO/AVC
Duration : 1h 55mn
Bit rate : 4 634 Kbps
Width : 1 280 pixels
Height : 720 pixels
Display aspect ratio : 16:9
Frame rate : 23.976 fps
Color space : YUV
Chroma subsampling : 4:2:0
Bit depth : 8 bits
Scan type : Progressive
Bits/(Pixel*Frame) : 0.210
Stream size : 3.68 GiB (84%)
Writing library : x264 core 80 r1376M 3feaec2
Encoding settings : cabac=1 / ref=8 / deblock=1:-3:-3 /
Language : English

Audio
ID : 2
Format : DTS
Format/Info : Digital Theater Systems
Codec ID : A_DTS
Duration : 1h 55mn
Bit rate mode : Constant
Bit rate : 755 Kbps
Channel(s) : 6 channels
Channel positions : Front: L C R, Side: L R, LFE
Sampling rate : 48.0 KHz
Bit depth : 16 bits
Compression mode : Lossy
Stream size : 625 MiB (14%)

Nội dung:
Kiệt sau cuộc khủng hoảng kinh tế rơi vào tình trạng phá sản. Anh sống chui rúc trong căn nhà bị niêm phong. Mỗi khi tuyệt vọng muốn tìm đến cái chết, Kiệt thường gọi điện đến đường dây nóng để được nghe giọng nói của Kỳ Kỳ. Kiệt khao khát được gặp Kỳ Kỳ nhưng bị từ chối, vì vậy anh đem sự tưởng tượng của mình dành cho Kỳ Kỳ đặt trên mình cô gái bán bia gần nhà tên Tiểu Hân, và thế là...




Download
Ðang Ký Account Free DOWNLOAD Hoạc Buy Account Rremium Ryushare Tại Đậy Để Tận Hưởng Những Tác Phẩm Điện Ảnh Hay Nhất=> CLICK HERE!

http://ryushare.com/55955d13196f/
http://ryushare.com/4b9439fbc398/
http://ryushare.com/4b9439fbc399/
http://ryushare.com/4aab6556b5c6/
http://ryushare.com/4e4eb7eaef7d/
Sub
http://www.fshare.vn/file/T60Y6JFYVT

You must logged in to post. Click here to login, or register.

Jump to