Home | Arcade | Tai Siu | Bau Cua
 
VietKungFu.com Phòng Luyện KungFu Phim Lẻ
Biệt Đội Tiêm Kích R2B - Return To Base 2012 720p HDRip H264-Mbaro

Posted by googlevnn - 19th October 2012 - 02:51 AM



General
Complete name : R2BReturn2Base2012720pHDTVAAC2.0x264-Mbaro.mp4
Format : MPEG-4
Codec ID : M4V
File size : 2.56 GiB
Duration : 1h 55mn
Overall bit rate mode : Variable
Overall bit rate : 3 191 Kbps
Encoded date : UTC 2012-09-23 02:45:41
Tagged date : UTC 2012-09-23 02:45:41
©TIM : 00:00:00:00
©TSC : 24000
©TSZ : 1001

Video
ID : 1
Format : AVC
Format/Info : Advanced Video Codec
Format profile : Main@L3.1
Format settings, CABAC : No
Format settings, ReFrames : 2 frames
Codec ID : avc1
Codec ID/Info : Advanced Video Coding
Duration : 1h 55mn
Source duration : 1h 55mn
Bit rate mode : Variable
Bit rate : 2 998 Kbps
Width : 1 280 pixels
Height : 720 pixels
Display aspect ratio : 16:9
Frame rate mode : Constant
Frame rate : 23.976 fps
Standard : NTSC
Color space : YUV
Chroma subsampling : 4:2:0
Bit depth : 8 bits
Scan type : Progressive
Bits/(Pixel*Frame) : 0.136
Stream size : 2.41 GiB (94%)
Source stream size : 2.41 GiB (94%)
Language : English
Encoded date : UTC 2012-09-23 02:45:41
Tagged date : UTC 2012-09-23 02:45:41
mdhd_Duration : 6900084

Audio
ID : 2
Format : AAC
Format/Info : Advanced Audio Codec
Format profile : LC
Codec ID : 40
Duration : 1h 55mn
Source duration : 1h 55mn
Bit rate mode : Variable
Bit rate : 192 Kbps
Maximum bit rate : 303 Kbps
Channel(s) : 2 channels
Channel positions : Front: L R
Sampling rate : 48.0 KHz
Compression mode : Lossy
Stream size : 156 MiB (6%)
Source stream size : 156 MiB (6%)
Language : English
Encoded date : UTC 2012-09-23 02:45:41
Tagged date : UTC 2012-09-23 02:45:41

Bộ phim Biệt Đội Tiêm Kích - R2B: Return To Base - Soar into the sun kể về Tae Hun (Bi Rain). Sau màn trổ tài gây náo loạn và rắc rối tại triển lãm hàng không thường niên, anh chàng bị điều về đội bay chiến đấu mang tên Phi đội chiến đấu 21.

Sau khi thực hiện một nhiệm vụ liều lĩnh nguy hiểm tại một triển lãm hàng không, phi công Air Force Hàn Quốc Tae-hun bị đuổi ra khỏi đội bay ưu tú bay Eagles và chuyển giao cho một đơn vị chiến đấu, nơi anh ta ngay lập tức đi vào cuộc xung đột với người đồng nghiệp khác là Cheol-hui . Anh ta đã kết bạn với các phi công khác trong đơn vị và phải lòng với người đẹp Se-young, người phụ trách bảo trì, nhưng trò hề của anh ta làm cho tòan đơn vị bị đình chỉ nhiệm vụ. Khi máy bay chiến đấu MIG của Bắc Triều Tiên đe dọa, nhóm được gọi trở lại vào một cuộc không chiến ác liệt đã làm cho một đồng chí đã chết và một mất tích. Cheol-hui và Tae-hun tham gia lực lượng để giải cứu bạn bè của họ mất tích và ngăn chặn một cuộc chiến tranh thảm khốc.

Tại đây, Tae Hun gặp lại người bạn học cũ của mình là Yu-jin (Lee Ha Na) và thủ lĩnh của biệt đội Đại bàng đen - Dae Seo (Kim Sung Soo). Tae-hun dần dần thích nghi với môi trường mới và những người bạn đồng nghiệp nhưng không thể nào tránh được những pha đối đầu với thủ lĩnh của biệt đội Chim ưng - Cheol Hui (Yu Jun Sang), người được coi là tay súng đỉnh cao của Phi đội chiến đấu 21.

Để bảo vệ danh dự của mình, cả hai tham gia vào một cuộc đấu trên không và lần đầu tiên Tae Hun biết đến mùi thất bại. Anh mời chuyên gia cơ khí Se Yeong (Shin Se Kyung) trông coi và sửa chữa máy bay phản lực của mình để có thể giành chiến thắng trước Cheol Hui cho một cuộc đấu về sau.

Một ngày nọ, một chiếc tiêm kích không xác định được tung tích bất ngờ xuất hiện trên bầu trời Seoul và đặt những người lính của Phi đội chiến đấu 21 trước một cuộc chiến. Rất có thể đây là khởi đầu cho cuộc chiến tranh nguyên tử. Tae Hun cùng những đồng đội của mình sẽ chiến đấu ra sao để bảo vệ sự an bình cho những người dân vô tội, đồng thời hoàn thành sứ mệnh tối thượng, mạo hiểm khi quyết định lao thẳng vào lãnh thổ của đối phương?



[b]Download

Ðang Ký Account Free DOWNLOAD Hoạc Buy Account Rremium Prefiles Tại Đậy Để Tận Hưởng Những Tác Phẩm Điện Ảnh Hay Nhất=> CLICK HERE!

http://ryushare.com/45366978aacc/R2B_Retur..._x264-Mbaro.mp4
http://ryushare.com/40aa423f5807/R2B_Retur...Mbaro.part1.rar
http://ryushare.com/419316e46864/R2B_Retur...Mbaro.part2.rar
http://ryushare.com/419316e46865/R2B_Retur...Mbaro.part3.rar
http://ryushare.com/427beb897a19/R2B_Retur...Mbaro.part4.rar
http://subscene.com/subtitles/title.aspx?q...To+Base+2012&l=

Download
Ðang Ký Account Free DOWNLOAD Hoạc Buy Account Rremium Prefiles Tại Đậy Để Tận Hưởng Những Tác Phẩm Điện Ảnh Hay Nhất=> CLICK HERE!

http://prefiles.com/hnijdofx0rpp/R2B_Retur..._x264-Mbaro.mp4
http://prefiles.com/leoob9kcq42z/R2B_Retur...Mbaro.part1.rar
http://prefiles.com/16lj55jh5vzg/R2B_Retur...Mbaro.part2.rar
http://prefiles.com/4f3kzgp6yjac/R2B_Retur...Mbaro.part3.rar
http://prefiles.com/14ve08h0be4g/R2B_Retur...Mbaro.part4.rar
http://subscene.com/subtitles/title.aspx?q...To+Base+2012&l=

[/B]

You must logged in to post. Click here to login, or register.

Jump to